#TITLE:Thelephone;
#SUBTITLE:Dead Master;
#ARTIST:Lady Gaga ft. Rihanna;
#TITLETRANSLIT:;
#SUBTITLETRANSLIT:;
#ARTISTTRANSLIT:;
#CREDIT:;
#BANNER:bn.jpg;
#BACKGROUND:bg.jpg;
#LYRICSPATH:;
#CDTITLE:cd.png;
#MUSIC:Thelephone.ogg;
#OFFSET:-2.432;
#SAMPLESTART:51.484;
#SAMPLELENGTH:12.000;
#SELECTABLE:YES;
#BPMS:0.000=122.319;
#STOPS:;
#BGCHANGES:;
// cache tags:
#FIRSTBEAT:0.000;
#LASTBEAT:223.750;
#SONGFILENAME:Songs/sdf/Lady Gaga ft. Rihanna (Thelephone)/Thelephone.sm;
#HASMUSIC:1;
#HASBANNER:1;
#MUSICLENGTH:112.131;
// end cache tags

//---------------dance-single - ----------------
#NOTES:
     dance-single:
     :
     Hard:
     1:
     0.851,0.823,1.000,0.062,1.000,525.000,135.000,7.000,0.000,2.000:
0001
0000
1000
0000
0010
0000
0100
0000
0000
0001
0000
1000
0000
0010
0000
0000
,
0100
0001
0000
0000
1000
0000
0010
0000
0000
0100
0000
0001
0000
0001
0000
0001
,
0000
1000
0010
0000
0010
0000
0100
0000
0001
0000
1000
0000
0000
0010
0000
0000
,
0000
0000
0000
0000
0000
0000
0000
0000
0000
0000
0000
0000
0000
0001
0000
0000
,
1000
0010
0000
0010
0000
0100
0000
0001
0000
1000
0000
0010
0000
0000
0100
0000
,
0001
0000
1000
0000
0000
0010
0000
0100
0000
0001
0000
0001
0000
1000
0000
0010
,
0000
0000
0100
0000
0001
0000
1000
0000
0000
0010
0000
0100
0000
0001
0000
0001
,
0001
0000
1000
0000
0000
0010
0000
0010
0000
0100
0001
0001
0000
0000
1000
0010
,
0000
0000
0100
0000
0001
0000
1000
0000
0010
0000
0000
0100
0000
0001
0000
0001
,
0100
0000
0010
0000
0000
2000
0000
0000
0000
3000
0010
0000
0010
0100
0000
0001
,
0000
1000
0000
0010
0000
0010
0000
0100
0001
0000
0010
0000
1000
0000
0100
0010
,
0010
0000
0100
0001
0010
0000
0010
0001
0000
1000
0100
0010
0000
0101
0000
0110
,
0000
1001
0000
0010
0100
0001
0000
0100
0010
0001
1000
0010
0100
0101
0000
0010
,
1000
0001
0000
0110
0000
0101
0000
0110
0000
0101
0101
0000
0010
1000
1010
0000
,
0001
0100
0101
0000
0000
1010
0010
0100
0001
0100
0101
0000
0010
1000
0001
0000
,
0100
0010
0000
1001
0000
0001
0100
0001
0100
0101
0000
0000
0010
0000
1000
0002
,
0000
0113
0000
0110
0000
1001
0000
0001
0100
0001
0100
0000
0101
0101
0000
0100
,
0010
1000
0010
0000
0000
0110
0101
0000
0101
0000
0010
1000
0001
0100
0000
0110
,
0000
0001
1000
0010
0100
0101
0000
0001
1000
0000
0110
0101
0000
0000
1010
0001
,
0100
0100
0010
0000
1001
0000
0101
0000
0001
1000
0010
0100
0001
1000
0000
0110
,
0010
0000
1001
0000
0110
0000
0001
1000
0101
0000
0101
0000
0101
0000
1010
1010
,
0000
0101
0000
0101
0000
1010
0000
0010
0100
0001
0100
0001
1000
0000
0110
0000
,
0101
1001
0000
0000
0110
0001
0100
0000
1010
0000
0001
0110
0000
0001
1000
0001
,
0000
0102
0000
0000
0003
0000
0020
0000
0000
0000
0030
0000
1100
0010
0000
0000
,
0001
0000
1001
0010
0100
0000
0101
0000
0110
0000
0101
0000
0110
0000
0001
1000
,
0010
0100
0000
0101
0000
0010
0000
1001
0000
0010
0000
0101
0000
0110
0000
0000
,
1001
0001
1000
0000
0110
0000
0110
0000
0001
0100
0001
0100
0100
0010
1001
0000
,
0100
0010
0000
0001
0000
0001
0000
0110
0000
0110
0000
0110
0000
0001
1000
0010
,
0100
0101
0000
0001
1000
0000
0110
0000
0101
0000
0101
0000
0101
0000
0101
0000
,
1010
0000
1010
0000
0101
0000
0101
0000
1010
0000
1001
0000
1001
0000
0000
0110
,
0101
0000
0001
0000
1010
0000
1101
0000
0010
1000
0001
0000
0110
0000
0101
0000
,
1001
0000
0110
0000
0001
1000
0000
0110
0000
0101
0000
0101
0000
0001
0000
0001
,
0000
0001
0000
0001
0000
0001
0000
1000
0000
0010
0010
0000
0010
0000
0100
0001
,
0000
0001
0000
1010
0000
0001
0100
0000
0110
0000
0010
0000
0000
0001
0100
0010
,
0000
0010
0100
0000
0001
0000
1001
0000
0010
0000
0101
0000
0010
0100
0000
1010
,
0000
0000
0010
0000
0010
0100
0000
0010
0000
0010
0000
0110
0000
0001
1000
0010
,
0000
0110
0000
0001
1000
0000
0110
0000
0110
0000
1001
0000
1001
0000
0110
0000
,
0110
0000
0000
1001
0000
0110
0000
0102
0000
0000
0000
0013
0000
0000
0100
1000
,
0100
0010
0000
0110
0000
0101
0000
0001
0000
1010
0000
0110
0000
0002
1000
0000
,
0000
0000
0013
0000
0010
1000
0100
0000
0010
0000
0010
0000
0100
0000
0001
0010
,
0100
0001
0010
0100
0000
0001
0010
0100
1000
0100
0000
0010
0010
0100
0000
1000
,
0100
0010
0000
0001
0010
0000
0100
0010
0000
0010
0000
0100
0000
0010
0010
0000
,
0100
0000
0010
0000
0100
0010
0010
0000
0110
0000
0110
0000
0010
0000
0110
0000
,
0010
0100
0010
0100
0010
0000
1000
0000
1010
0000
0010
0010
0000
0100
0001
0001
,
0000
0100
0001
0001
0100
0001
0000
0001
0000
0100
0001
0000
0101
0000
0001
0100
,
0001
0100
0000
0001
0100
0010
0000
0010
1000
0000
0010
0010
0000
0100
0000
0010
,
0100
0010
0000
0010
0100
1001
0000
0001
1000
0010
0000
0010
0100
0010
0000
1010
,
0000
0100
0010
0010
0000
0101
0000
0001
0001
0100
0000
0001
0001
0000
0000
0010
,
0000
0010
0000
0010
0000
0100
0010
0000
0101
0000
0110
0000
0001
1000
0010
0100
,
0001
0000
1010
0000
0000
0001
1000
0010
0000
0110
0100
0000
0000
1001
0001
0000
,
0010
0001
0000
0001
0000
0001
0000
1001
0000
1000
0000
1000
1000
0000
0010
0010
,
0010
0000
0100
0000
0100
0100
0010
0001
0000
1010
0000
0110
0000
0101
0000
0010
,
1000
0001
0000
0110
0000
0001
1000
0010
0100
0110
0000
0001
1000
0010
0000
0001
,
1000
0010
0000
0101
0000
0110
0000
1001
0000
0110
0000
0110
0000
1001
0001
0000
,
0001
0001
0000
0001
1000
0000
0010
0010
0010
0000
0100
0000
0100
0010
0010
0010
,
0010
0000
0000
1100
0010
0010
0000
0010
0100
0000
1000
0200
0000
0000
0000
0300
;
